魔星字幕团【日影】[MagicStar] 花之飞鸟组! / 花のあすか組! 1988 [WEBDL] [1080p] [AMZN]【生】

  • 所属分类:
    日剧
  • 发布时间: 2021/01/28 14:01
  • 种子下载: 下载种子/磁力链接
  • 文件大小: 8.9GB

簡介: 

HD 1080p from Prime Video.
alt text
alt text

General Unique ID                      : 32847826433114410508513385410581106901 (0x18B642E1835B1CBAEE42AB74E73E10D5) Complete name                  : Hana.no.Asuka.Gumi.1988.1080p.WEB-DL.DDP2.0.H.264-MagicStar.mkv Format                         : Matroska Format version                 : Version 4 File size                      : 8.92 GiB Duration                       : 1 h 38 min Overall bit rate               : 12.9 Mb/s Encoded date                   : UTC 2021-01-24 09:27:31 Writing application            : mkvmerge v50.0.0 ('Awakenings') 64-bit Writing library                : libebml v1.4.0   libmatroska v1.6.2 Cover                          : Yes Attachments                    : cover.png  Video ID                             : 1 Format                         : AVC Format/Info                    : Advanced Video Codec Format profile                 : [email protected] Format settings                : CABAC / 4 Ref Frames Format settings, CABAC         : Yes Format settings, Reference fra : 4 frames Codec ID                       : V_MPEG4/ISO/AVC Duration                       : 1 h 38 min Bit rate                       : 12.7 Mb/s Width                          : 1 920 pixels Height                         : 1 040 pixels Display aspect ratio           : 1.85:1 Frame rate mode                : Constant Frame rate                     : 23.976 (24000/1001) FPS Color space                    : YUV Chroma subsampling             : 4:2:0 Bit depth                      : 8 bits Scan type                      : Progressive Bits/(Pixel*Frame)             : 0.265 Stream size                    : 8.76 GiB (98%) Default                        : Yes Forced                         : No Color range                    : Limited Color primaries                : BT.709 Transfer characteristics       : BT.709 Matrix coefficients            : BT.709  Audio ID                             : 2 Format                         : E-AC-3 Format/Info                    : Enhanced AC-3 Commercial name                : Dolby Digital Plus Codec ID                       : A_EAC3 Duration                       : 1 h 38 min Bit rate mode                  : Constant Bit rate                       : 224 kb/s Channel(s)                     : 2 channels Channel layout                 : L R Sampling rate                  : 48.0 kHz Frame rate                     : 31.250 FPS (1536 SPF) Compression mode               : Lossy Stream size                    : 158 MiB (2%) Language                       : Japanese Service kind                   : Complete Main Default                        : Yes Forced                         : No

  • BT列表

BT链接信息: 【日影】[MagicStar] 花之飞鸟组! / 花のあすか組! 1988 [WEBDL] [1080p] [AMZN]【生】

Magnet链接: magnet:?xt=urn:btih:5H5UFTGO7Q3E6HSJ5TZ2IAL27TZIXQ3U

Magnet链接typeII: magnet:?xt=urn:btih:e9fb42cccefc364f1e49ecf3a4017afcf28bc374

弹幕播放链接: ddplay:magnet:?xt=urn:btih:5H5UFTGO7Q3E6HSJ5TZ2IAL27TZIXQ3U 


天空动漫 » 魔星字幕团【日影】[MagicStar] 花之飞鸟组! / 花のあすか組! 1988 [WEBDL] [1080p] [AMZN]【生】

提供最优质的资源集合

立即查看 了解详情