魔星字幕团【2020夏日影】[MagicStar] 我是大哥大!! 电影版 / 今日から俺は!! 劇場版 [WEBDL] [1080p] [AMZN]【生】【修正版】

  • 所属分类:
    日剧
  • 发布时间: 2021/01/24 20:00
  • 种子下载: 下载种子/磁力链接
  • 文件大小: 5.5GB

簡介: 

HD 1080p from Prime Video. Upload original stream version with DDP5.1.
alt text
alt text

General Unique ID                      : 222461172947635015882670873679147017878 (0xA75C76A449B9C2F930EB7E9EDB9FA696) Complete name                  : Kyou.Kara.Ore.Wa.2020.1080p.WEB-DL.DDP5.1.H.264-MagicStar.mkv Format                         : Matroska Format version                 : Version 4 File size                      : 5.54 GiB Duration                       : 1 h 54 min Overall bit rate               : 6 952 kb/s Encoded date                   : UTC 2021-01-24 08:53:43 Writing application            : mkvmerge v50.0.0 ('Awakenings') 64-bit Writing library                : libebml v1.4.0   libmatroska v1.6.2 Cover                          : Yes Attachments                    : cover.png  Video ID                             : 1 Format                         : AVC Format/Info                    : Advanced Video Codec Format profile                 : [email protected] Format settings                : CABAC / 4 Ref Frames Format settings, CABAC         : Yes Format settings, Reference fra : 4 frames Codec ID                       : V_MPEG4/ISO/AVC Duration                       : 1 h 54 min Bit rate                       : 6 310 kb/s Width                          : 1 920 pixels Height                         : 1 040 pixels Display aspect ratio           : 1.85:1 Frame rate mode                : Constant Frame rate                     : 23.976 (24000/1001) FPS Color space                    : YUV Chroma subsampling             : 4:2:0 Bit depth                      : 8 bits Scan type                      : Progressive Bits/(Pixel*Frame)             : 0.132 Stream size                    : 5.03 GiB (91%) Default                        : Yes Forced                         : No Color range                    : Limited Color primaries                : BT.709 Transfer characteristics       : BT.709 Matrix coefficients            : BT.709  Audio ID                             : 2 Format                         : E-AC-3 Format/Info                    : Enhanced AC-3 Commercial name                : Dolby Digital Plus Codec ID                       : A_EAC3 Duration                       : 1 h 54 min Bit rate mode                  : Constant Bit rate                       : 640 kb/s Channel(s)                     : 6 channels Channel layout                 : L R C LFE Ls Rs Sampling rate                  : 48.0 kHz Frame rate                     : 31.250 FPS (1536 SPF) Compression mode               : Lossy Stream size                    : 522 MiB (9%) Language                       : Japanese Service kind                   : Complete Main Default                        : Yes Forced                         : No

  • BT列表

BT链接信息: 【2020夏日影】[MagicStar] 我是大哥大!! 电影版 / 今日から俺は!! 劇場版 [WEBDL] [1080p] [AMZN]【生】【修正版】

Magnet链接: magnet:?xt=urn:btih:4YQRSLDMXGY6SDOMFHXEH7KANTW6DLVH

Magnet链接typeII: magnet:?xt=urn:btih:e621192c6cb9b1e90dcc29ee43fd406cede1aea7

弹幕播放链接: ddplay:magnet:?xt=urn:btih:4YQRSLDMXGY6SDOMFHXEH7KANTW6DLVH 


天空动漫 » 魔星字幕团【2020夏日影】[MagicStar] 我是大哥大!! 电影版 / 今日から俺は!! 劇場版 [WEBDL] [1080p] [AMZN]【生】【修正版】

提供最优质的资源集合

立即查看 了解详情