[DDD] 梅露可物语 -无精打采的少年与瓶中的少女- Merc Storia [BDrip 1080p HEVC FLAC][10bits]

  • 所属分类:
    动漫 >  季度全集
  • 发布时间: 2020/12/06 15:28
  • 种子下载: 下载种子/磁力链接
  • 文件大小: 7.9GB

簡介: 

字幕包:喵萌奶茶屋,感谢原字幕组。

General

Unique ID : 110556198550891848807456488168078641418 (0x532C596DDDCCDEBCE15C2D0767BB090A)
Complete name : 梅露可物语 -无精打采的少年与瓶中的少女-\メルクストーリア -無気力少年と瓶の中の少女- 第01話 「無気力少年と瓶の中の少女」.mkv
Format : Matroska
Format version : Version 4
File size : 652 MiB
Duration : 23 min 41 s
Overall bit rate mode : Variable
Overall bit rate : 3 846 kb/s
Encoded date : UTC 2020-12-06 03:35:52
Writing application : mkvmerge v43.0.0 (‘The Quartermaster’) 64-bit
Writing library : libebml v1.3.10 libmatroska v1.5.2

Video

ID : 1
Format : HEVC
Format/Info : High Efficiency Video Coding
Format profile : Main [email protected]@Main
Codec ID : V_MPEGH/ISO/HEVC
Duration : 23 min 41 s
Bit rate : 3 171 kb/s
Width : 1 920 pixels
Height : 1 080 pixels
Display aspect ratio : 16:9
Frame rate mode : Constant
Frame rate : 23.976 (24000/1001) FPS
Color space : YUV
Chroma subsampling : 4:2:0
Bit depth : 10 bits
Bits/(Pixel*Frame) : 0.064
Stream size : 537 MiB (82%)
Writing library : x265 3.4g73f96ff39:[Windows][GCC 11.0.0][64 bit] 10bit
Encoding settings : cpuid=1111039 / frame-threads=3 / numa-pools=8 / wpp / no-pmode / no-pme / no-psnr / no-ssim / log-level=2 / input-csp=1 / input-res=1920×1080 / interlace=0 / total-frames=34073 / level-idc=0 / high-tier=1 / uhd-bd=0 / ref=4 / no-allow-non-conformance / no-repeat-headers / annexb / no-aud / no-hrd / info / hash=0 / no-temporal-layers / no-open-gop / min-keyint=23 / keyint=360 / gop-lookahead=0 / bframes=6 / b-adapt=2 / b-pyramid / bframe-bias=0 / rc-lookahead=60 / lookahead-slices=6 / scenecut=40 / hist-scenecut=0 / radl=0 / no-splice / no-intra-refresh / ctu=32 / min-cu-size=8 / no-rect / no-amp / max-tu-size=32 / tu-inter-depth=2 / tu-intra-depth=2 / limit-tu=0 / rdoq-level=2 / dynamic-rd=0.00 / no-ssim-rd / signhide / no-tskip / nr-intra=0 / nr-inter=0 / no-constrained-intra / no-strong-intra-smoothing / max-merge=3 / limit-refs=1 / no-limit-modes / me=3 / subme=5 / merange=48 / temporal-mvp / no-frame-dup / no-hme / weightp / weightb / no-analyze-src-pics / deblock=-1:-1 / no-sao / no-sao-non-deblock / rd=4 / selective-sao=0 / no-early-skip / rskip / no-fast-intra / no-tskip-fast / no-cu-lossless / b-intra / no-splitrd-skip / rdpenalty=0 / psy-rd=2.00 / psy-rdoq=3.00 / no-rd-refine / no-lossless / cbqpoffs=-2 / crqpoffs=-2 / rc=crf / crf=17.5 / qcomp=0.65 / qpstep=4 / stats-write=0 / stats-read=0 / ipratio=1.40 / pbratio=1.20 / aq-mode=2 / aq-strength=0.90 / cutree / zone-count=0 / no-strict-cbr / qg-size=32 / no-rc-grain / qpmax=69 / qpmin=0 / no-const-vbv / sar=0 / overscan=0 / videoformat=5 / range=0 / colorprim=2 / transfer=2 / colormatrix=2 / chromaloc=0 / display-window=0 / cll=0,0 / min-luma=0 / max-luma=1023 / log2-max-poc-lsb=8 / vui-timing-info / vui-hrd-info / slices=1 / no-opt-qp-pps / no-opt-ref-list-length-pps / no-multi-pass-opt-rps / scenecut-bias=0.05 / hist-threshold=0.01 / no-opt-cu-delta-qp / no-aq-motion / no-hdr10 / no-hdr10-opt / no-dhdr10-opt / no-idr-recovery-sei / analysis-reuse-level=0 / analysis-save-reuse-level=0 / analysis-load-reuse-level=0 / scale-factor=0 / refine-intra=0 / refine-inter=0 / refine-mv=1 / refine-ctu-distortion=0 / no-limit-sao / ctu-info=0 / no-lowpass-dct / refine-analysis-type=0 / copy-pic=1 / max-ausize-factor=1.0 / no-dynamic-refine / no-single-sei / no-hevc-aq / no-svt / no-field / qp-adaptation-range=1.00 / no-scenecut-aware-qpconformance-window-offsets / right=0 / bottom=0 / decoder-max-rate=0
Default : Yes
Forced : No

Audio

ID : 2
Format : FLAC
Format/Info : Free Lossless Audio Codec
Codec ID : A_FLAC
Duration : 23 min 41 s
Bit rate mode : Variable
Bit rate : 673 kb/s
Channel(s) : 2 channels
Channel layout : L R
Sampling rate : 48.0 kHz
Frame rate : 11.719 FPS (4096 SPF)
Bit depth : 16 bits
Compression mode : Lossless
Stream size : 114 MiB (17%)
Writing library : libFLAC 1.3.3 (UTC 2019-08-04)
Default : Yes
Forced : No

Menu

00:00:00.000 : :Avant
00:03:30.001 : :Opening
00:05:00.008 : :A-part
00:12:33.085 : :B-part
00:21:55.063 : :Ending
00:23:25.070 : :Next

 

  • BT列表

BT链接信息: [DDD] 梅露可物语 -无精打采的少年与瓶中的少女- Merc Storia [BDrip 1080p HEVC FLAC][10bits]

Magnet链接: magnet:?xt=urn:btih:3MVOOD3MZAF4YH4XEQ4DZD2PTKHKY3T2

Magnet链接typeII: magnet:?xt=urn:btih:db2ae70f6cc80bcc1f9724383c8f4f9a8eac6e7a

弹幕播放链接: ddplay:magnet:?xt=urn:btih:3MVOOD3MZAF4YH4XEQ4DZD2PTKHKY3T2 

包含壓縮包或可執行文件,請仔細辨別,查毒.

提供最优质的资源集合

立即查看 了解详情