[DDD] 转生乙女游戏的恶役千金就要拔除破灭旗标 HameFura S1 [BDrip 720p HEVC AAC][10bits]

  • 所属分类:
    动漫 >  季度全集
  • 发布时间: 2020/09/26 16:33
  • 种子下载: 下载种子/磁力链接
  • 文件大小: 3.2GB

簡介: 

会有第二季!

字幕包:喵萌字幕社,只保留简体。感谢原字幕组。

General

Complete name : D:\[DDD] 转生乙女游戏的恶役千金就要拔除破灭旗标 S1 [BDrip 720p HEVC AAC][10bits]\乙女ゲームの破滅フラグしかない悪役令嬢に転生してしまった… 第01話 「前世の記憶を思い出してしまった…」.mp4
Format : MPEG-4
Format profile : Base Media
Codec ID : isom (isom)
File size : 211 MiB
Duration : 24 min 52 s
Overall bit rate mode : Variable
Overall bit rate : 1 187 kb/s
Encoded date : UTC 2020-09-17 04:28:52
Tagged date : UTC 2020-09-17 04:28:52

Video

ID : 1
Format : HEVC
Format/Info : High Efficiency Video Coding
Format profile : Main [email protected]@Main
Codec ID : hev1
Codec ID/Info : High Efficiency Video Coding
Duration : 24 min 51 s
Bit rate : 999 kb/s
Maximum bit rate : 15.2 Mb/s
Width : 1 280 pixels
Height : 720 pixels
Display aspect ratio : 16:9
Frame rate mode : Variable
Frame rate : 23.976 (24000/1001) FPS
Minimum frame rate : 23.564 FPS
Maximum frame rate : 24.390 FPS
Color space : YUV
Chroma subsampling : 4:2:0
Bit depth : 10 bits
Bits/(Pixel*Frame) : 0.045
Stream size : 178 MiB (84%)
Writing library : x265 3.4g73f96ff39:[Windows][GCC 11.0.0][64 bit] 10bit
Encoding settings : cpuid=1111039 / frame-threads=3 / numa-pools=8 / wpp / no-pmode / no-pme / no-psnr / no-ssim / log-level=2 / input-csp=1 / input-res=1280×720 / interlace=0 / total-frames=35772 / level-idc=0 / high-tier=1 / uhd-bd=0 / ref=6 / no-allow-non-conformance / no-repeat-headers / annexb / no-aud / no-hrd / info / hash=0 / no-temporal-layers / no-open-gop / min-keyint=23 / keyint=360 / gop-lookahead=0 / bframes=6 / b-adapt=2 / b-pyramid / bframe-bias=0 / rc-lookahead=40 / lookahead-slices=4 / scenecut=40 / hist-scenecut=0 / radl=0 / no-splice / no-intra-refresh / ctu=32 / min-cu-size=8 / no-rect / no-amp / max-tu-size=32 / tu-inter-depth=2 / tu-intra-depth=2 / limit-tu=0 / rdoq-level=2 / dynamic-rd=0.00 / no-ssim-rd / signhide / no-tskip / nr-intra=0 / nr-inter=0 / no-constrained-intra / no-strong-intra-smoothing / max-merge=3 / limit-refs=1 / no-limit-modes / me=3 / subme=7 / merange=48 / temporal-mvp / no-frame-dup / no-hme / weightp / weightb / no-analyze-src-pics / deblock=0:0 / sao / no-sao-non-deblock / rd=4 / selective-sao=4 / no-early-skip / no-rskip / no-fast-intra / no-tskip-fast / no-cu-lossless / b-intra / no-splitrd-skip / rdpenalty=0 / psy-rd=2.00 / psy-rdoq=3.00 / no-rd-refine / no-lossless / cbqpoffs=0 / crqpoffs=0 / rc=crf / crf=18.0 / qcomp=0.70 / qpstep=4 / stats-write=0 / stats-read=0 / ipratio=1.40 / pbratio=1.30 / aq-mode=2 / aq-strength=1.00 / cutree / zone-count=0 / no-strict-cbr / qg-size=32 / no-rc-grain / qpmax=69 / qpmin=0 / no-const-vbv / sar=0 / overscan=0 / videoformat=5 / range=0 / colorprim=1 / transfer=1 / colormatrix=1 / chromaloc=0 / display-window=0 / cll=0,0 / min-luma=0 / max-luma=1023 / log2-max-poc-lsb=8 / vui-timing-info / vui-hrd-info / slices=1 / no-opt-qp-pps / no-opt-ref-list-length-pps / no-multi-pass-opt-rps / scenecut-bias=0.05 / hist-threshold=0.01 / no-opt-cu-delta-qp / no-aq-motion / no-hdr10 / no-hdr10-opt / no-dhdr10-opt / no-idr-recovery-sei / analysis-reuse-level=0 / analysis-save-reuse-level=0 / analysis-load-reuse-level=0 / scale-factor=0 / refine-intra=0 / refine-inter=0 / refine-mv=1 / refine-ctu-distortion=0 / no-limit-sao / ctu-info=0 / no-lowpass-dct / refine-analysis-type=0 / copy-pic=1 / max-ausize-factor=1.0 / no-dynamic-refine / no-single-sei / no-hevc-aq / no-svt / no-field / qp-adaptation-range=1.00 / no-scenecut-aware-qpconformance-window-offsets / right=0 / bottom=0 / decoder-max-rate=0
Tagged date : UTC 2020-09-17 04:28:54
Color range : Limited
Color primaries : BT.709
Transfer characteristics : BT.709
Matrix coefficients : BT.709
Codec configuration box : hvcC

Audio

ID : 2
Format : AAC LC
Format/Info : Advanced Audio Codec Low Complexity
Codec ID : mp4a-40-2
Duration : 24 min 52 s
Bit rate mode : Variable
Bit rate : 183 kb/s
Maximum bit rate : 267 kb/s
Channel(s) : 2 channels
Channel layout : L R
Sampling rate : 48.0 kHz
Frame rate : 46.875 FPS (1024 SPF)
Compression mode : Lossy
Stream size : 32.5 MiB (15%)
Encoded date : UTC 2020-09-16 17:11:08
Tagged date : UTC 2020-09-17 04:28:54

 

  • BT列表

BT链接信息: [DDD] 转生乙女游戏的恶役千金就要拔除破灭旗标 HameFura S1 [BDrip 720p HEVC AAC][10bits]

Magnet链接: magnet:?xt=urn:btih:GS2SG57NQTHGUAERLWIWWUXQMEHJMGS6

Magnet链接typeII: magnet:?xt=urn:btih:34b52377ed84ce6a00915d916b52f0610e961a5e

弹幕播放链接: ddplay:magnet:?xt=urn:btih:GS2SG57NQTHGUAERLWIWWUXQMEHJMGS6 

包含壓縮包或可執行文件,請仔細辨別,查毒.


天空动漫 » [DDD] 转生乙女游戏的恶役千金就要拔除破灭旗标 HameFura S1 [BDrip 720p HEVC AAC][10bits]

提供最优质的资源集合

立即查看 了解详情