[DDD] 一弦定音! Kono Oto Tomare! [BDrip 810p HEVC AAC][10bits]

  • 所属分类:
    动漫 >  季度全集
  • 发布时间: 2020/09/08 14:01
  • 种子下载: 下载种子/磁力链接
  • 文件大小: 5.5GB

簡介: 

字幕包:时雨初空,仅搬运,感谢原字幕组。

 

General

Complete name : D:\[DDD] 一弦定音! [BDrip 810p HEVC AAC][10bits]\この音とまれ! #01 「新入部員」.mp4
Format : MPEG-4
Format profile : Base Media
Codec ID : isom (isom)
File size : 301 MiB
Duration : 23 min 41 s
Overall bit rate mode : Variable
Overall bit rate : 1 779 kb/s
Encoded date : UTC 2020-09-05 08:16:20
Tagged date : UTC 2020-09-05 08:16:20

 

Video

ID : 1
Format : HEVC
Format/Info : High Efficiency Video Coding
Format profile : Main [email protected]@Main
Codec ID : hev1
Codec ID/Info : High Efficiency Video Coding
Duration : 23 min 41 s
Bit rate : 1 575 kb/s
Maximum bit rate : 23.2 Mb/s
Width : 1 440 pixels
Height : 808 pixels
Display aspect ratio : 16:9
Frame rate mode : Variable
Frame rate : 23.976 (24000/1001) FPS
Minimum frame rate : 23.564 FPS
Maximum frame rate : 24.390 FPS
Color space : YUV
Chroma subsampling : 4:2:0
Bit depth : 10 bits
Bits/(Pixel*Frame) : 0.056
Stream size : 267 MiB (89%)
Writing library : x265 3.4g73f96ff39:[Windows][GCC 11.0.0][64 bit] 10bit
Encoding settings : cpuid=1111039 / frame-threads=3 / numa-pools=8 / wpp / no-pmode / no-pme / no-psnr / no-ssim / log-level=2 / input-csp=1 / input-res=1440×808 / interlace=0 / total-frames=34072 / level-idc=0 / high-tier=1 / uhd-bd=0 / ref=6 / no-allow-non-conformance / no-repeat-headers / annexb / no-aud / no-hrd / info / hash=0 / no-temporal-layers / no-open-gop / min-keyint=23 / keyint=360 / gop-lookahead=0 / bframes=6 / b-adapt=2 / b-pyramid / bframe-bias=0 / rc-lookahead=40 / lookahead-slices=5 / scenecut=40 / hist-scenecut=0 / radl=0 / no-splice / no-intra-refresh / ctu=32 / min-cu-size=8 / no-rect / no-amp / max-tu-size=32 / tu-inter-depth=2 / tu-intra-depth=2 / limit-tu=0 / rdoq-level=2 / dynamic-rd=0.00 / no-ssim-rd / signhide / no-tskip / nr-intra=0 / nr-inter=0 / no-constrained-intra / no-strong-intra-smoothing / max-merge=3 / limit-refs=1 / no-limit-modes / me=3 / subme=7 / merange=48 / temporal-mvp / no-frame-dup / no-hme / weightp / weightb / no-analyze-src-pics / deblock=0:0 / sao / no-sao-non-deblock / rd=4 / selective-sao=4 / no-early-skip / no-rskip / no-fast-intra / no-tskip-fast / no-cu-lossless / b-intra / no-splitrd-skip / rdpenalty=0 / psy-rd=2.00 / psy-rdoq=3.00 / no-rd-refine / no-lossless / cbqpoffs=0 / crqpoffs=0 / rc=crf / crf=18.0 / qcomp=0.65 / qpstep=4 / stats-write=0 / stats-read=0 / ipratio=1.40 / pbratio=1.30 / aq-mode=2 / aq-strength=0.80 / cutree / zone-count=0 / no-strict-cbr / qg-size=32 / no-rc-grain / qpmax=69 / qpmin=0 / no-const-vbv / sar=0 / overscan=0 / videoformat=5 / range=0 / colorprim=2 / transfer=2 / colormatrix=2 / chromaloc=0 / display-window=0 / cll=0,0 / min-luma=0 / max-luma=1023 / log2-max-poc-lsb=8 / vui-timing-info / vui-hrd-info / slices=1 / no-opt-qp-pps / no-opt-ref-list-length-pps / no-multi-pass-opt-rps / scenecut-bias=0.05 / hist-threshold=0.01 / no-opt-cu-delta-qp / no-aq-motion / no-hdr10 / no-hdr10-opt / no-dhdr10-opt / no-idr-recovery-sei / analysis-reuse-level=0 / analysis-save-reuse-level=0 / analysis-load-reuse-level=0 / scale-factor=0 / refine-intra=0 / refine-inter=0 / refine-mv=1 / refine-ctu-distortion=0 / no-limit-sao / ctu-info=0 / no-lowpass-dct / refine-analysis-type=0 / copy-pic=1 / max-ausize-factor=1.0 / no-dynamic-refine / no-single-sei / no-hevc-aq / no-svt / no-field / qp-adaptation-range=1.00 / no-scenecut-aware-qpconformance-window-offsets / right=0 / bottom=0 / decoder-max-rate=0
Tagged date : UTC 2020-09-05 08:16:21
Codec configuration box : hvcC

 

Audio

ID : 2
Format : AAC LC
Format/Info : Advanced Audio Codec Low Complexity
Codec ID : mp4a-40-2
Duration : 23 min 41 s
Bit rate mode : Variable
Bit rate : 199 kb/s
Maximum bit rate : 309 kb/s
Channel(s) : 2 channels
Channel layout : L R
Sampling rate : 48.0 kHz
Frame rate : 46.875 FPS (1024 SPF)
Compression mode : Lossy
Stream size : 33.7 MiB (11%)
Encoded date : UTC 2020-09-04 15:18:36
Tagged date : UTC 2020-09-05 08:16:21

 

  • BT列表

BT链接信息: [DDD] 一弦定音! Kono Oto Tomare! [BDrip 810p HEVC AAC][10bits]

Magnet链接: magnet:?xt=urn:btih:WEZ6WUEUJDWFEBBRPJFLIIZXUOYQDPQZ

Magnet链接typeII: magnet:?xt=urn:btih:b133eb509448ec5204317a4ab42337a3b101be19

弹幕播放链接: ddplay:magnet:?xt=urn:btih:WEZ6WUEUJDWFEBBRPJFLIIZXUOYQDPQZ 

包含壓縮包或可執行文件,請仔細辨別,查毒.


天空动漫 » [DDD] 一弦定音! Kono Oto Tomare! [BDrip 810p HEVC AAC][10bits]

提供最优质的资源集合

立即查看 了解详情