[DDD] 机动战士高达00 TV+剧场版 Mobile Suits GUNDAM 00 [BDrip 720p HEVC AAC][10bits]

  • 所属分类:
    动漫 >  季度全集
  • 发布时间: 2020/08/20 23:40
  • 种子下载: 下载种子/磁力链接
  • 文件大小: 20.3GB

簡介: 

贴着vcb的大腿,忍不住洗一次720p的版本。该片同认为是高达史上综合机体和剧情都最好看的一部,而且OPEDOST都非常好听。每补一次能让我自闭大半年(称赞)。

18话4:51有原盘画面破损问题,针对修复也是快要翻断手,采用的raw源来自THORA,早期的THORA和QYQ应该是用的自购BD,所以并没有画面破损问题。

字幕包:CASO,感谢原字幕组。

General

Complete name : D:\[DDD] 機動戦士 GUNDAM 00 [BDrip 720p HEVC AAC][10bits]\機動戦士ガンダム00 劇場版 -A wakening of the Trailblazer-.mp4
Format : MPEG-4
Format profile : Base Media
Codec ID : isom (isom)
File size : 2.30 GiB
Duration : 2 h 0 min
Overall bit rate mode : Variable
Overall bit rate : 2 732 kb/s
Encoded date : UTC 2020-08-20 14:39:43
Tagged date : UTC 2020-08-20 14:39:43

Video

ID : 1
Format : HEVC
Format/Info : High Efficiency Video Coding
Format profile : Main [email protected]@Main
Codec ID : hev1
Codec ID/Info : High Efficiency Video Coding
Duration : 2 h 0 min
Bit rate : 2 536 kb/s
Maximum bit rate : 31.5 Mb/s
Width : 1 280 pixels
Height : 720 pixels
Display aspect ratio : 16:9
Frame rate mode : Variable
Frame rate : 23.976 (24000/1001) FPS
Minimum frame rate : 23.564 FPS
Maximum frame rate : 24.390 FPS
Color space : YUV
Chroma subsampling : 4:2:0
Bit depth : 10 bits
Bits/(Pixel*Frame) : 0.115
Stream size : 2.13 GiB (93%)
Writing library : x265 3.3gbe2d82093:[Windows][GCC 9.2.0][64 bit] 10bit
Encoding settings : cpuid=1111039 / frame-threads=3 / numa-pools=8 / wpp / no-pmode / no-pme / no-psnr / no-ssim / log-level=2 / input-csp=1 / input-res=1280×720 / interlace=0 / total-frames=173337 / level-idc=0 / high-tier=1 / uhd-bd=0 / ref=6 / no-allow-non-conformance / no-repeat-headers / annexb / no-aud / no-hrd / info / hash=0 / no-temporal-layers / no-open-gop / min-keyint=1 / keyint=360 / gop-lookahead=0 / bframes=6 / b-adapt=2 / b-pyramid / bframe-bias=0 / rc-lookahead=40 / lookahead-slices=4 / scenecut=40 / hist-scenecut=0 / radl=0 / no-splice / no-intra-refresh / ctu=32 / min-cu-size=8 / no-rect / no-amp / max-tu-size=32 / tu-inter-depth=2 / tu-intra-depth=2 / limit-tu=0 / rdoq-level=2 / dynamic-rd=0.00 / no-ssim-rd / signhide / no-tskip / nr-intra=0 / nr-inter=0 / no-constrained-intra / no-strong-intra-smoothing / max-merge=3 / limit-refs=1 / no-limit-modes / me=3 / subme=7 / merange=48 / temporal-mvp / no-frame-dup / no-hme / weightp / weightb / no-analyze-src-pics / deblock=0:0 / no-sao / no-sao-non-deblock / rd=4 / selective-sao=0 / early-skip / no-rskip / no-fast-intra / no-tskip-fast / no-cu-lossless / b-intra / no-splitrd-skip / rdpenalty=0 / psy-rd=2.00 / psy-rdoq=3.00 / no-rd-refine / no-lossless / cbqpoffs=0 / crqpoffs=0 / rc=crf / crf=18.0 / qcomp=0.70 / qpstep=4 / stats-write=0 / stats-read=0 / ipratio=1.40 / pbratio=1.30 / aq-mode=2 / aq-strength=0.80 / cutree / zone-count=0 / no-strict-cbr / qg-size=32 / no-rc-grain / qpmax=69 / qpmin=0 / no-const-vbv / sar=0 / overscan=0 / videoformat=5 / range=0 / colorprim=2 / transfer=2 / colormatrix=1 / chromaloc=0 / display-window=0 / cll=0,0 / min-luma=0 / max-luma=1023 / log2-max-poc-lsb=8 / vui-timing-info / vui-hrd-info / slices=1 / no-opt-qp-pps / no-opt-ref-list-length-pps / no-multi-pass-opt-rps / scenecut-bias=0.05 / hist-threshold=0.01 / no-opt-cu-delta-qp / no-aq-motion / no-hdr10 / no-hdr10-opt / no-dhdr10-opt / no-idr-recovery-sei / analysis-reuse-level=0 / analysis-save-reuse-level=0 / analysis-load-reuse-level=0 / scale-factor=0 / refine-intra=0 / refine-inter=0 / refine-mv=1 / refine-ctu-distortion=0 / no-limit-sao / ctu-info=0 / no-lowpass-dct / refine-analysis-type=0 / copy-pic=1 / max-ausize-factor=1.0 / no-dynamic-refine / no-single-sei / no-hevc-aq / no-svt / no-field / qp-adaptation-range=1.00 / no-scenecut-aware-qpconformance-window-offsets / right=0 / bottom=0
Tagged date : UTC 2020-08-20 14:40:07
Color range : Limited
Matrix coefficients : BT.709
Codec configuration box : hvcC

Audio

ID : 2
Format : AAC LC
Format/Info : Advanced Audio Codec Low Complexity
Codec ID : mp4a-40-2
Duration : 2 h 0 min
Bit rate mode : Variable
Bit rate : 192 kb/s
Maximum bit rate : 266 kb/s
Channel(s) : 2 channels
Channel layout : L R
Sampling rate : 48.0 kHz
Frame rate : 46.875 FPS (1024 SPF)
Compression mode : Lossy
Stream size : 165 MiB (7%)
Encoded date : UTC 2020-08-19 08:45:32
Tagged date : UTC 2020-08-20 14:40:07

 

  • BT列表

BT链接信息: [DDD] 机动战士高达00 TV 剧场版 Mobile Suits GUNDAM 00 [BDrip 720p HEVC AAC][10bits]

Magnet链接: magnet:?xt=urn:btih:STCSK47OTYV2VQQ3INHPUTFZJ377VIRX

Magnet链接typeII: magnet:?xt=urn:btih:94c52573ee9e2baac21b434efa4cb94efffaa237

弹幕播放链接: ddplay:magnet:?xt=urn:btih:STCSK47OTYV2VQQ3INHPUTFZJ377VIRX 

包含壓縮包或可執行文件,請仔細辨別,查毒.


天空动漫 » [DDD] 机动战士高达00 TV+剧场版 Mobile Suits GUNDAM 00 [BDrip 720p HEVC AAC][10bits]

提供最优质的资源集合

立即查看 了解详情